Go Back Free Porn & Adult Videos Forum > Pornstars/Adult and Teen Models (PATM) > PATM - Dead Links

Follow Planet Suzy Forum on Twitter
Best Porn Sites FAQ Mark Forums Read
Notices

PATM - Dead Links Posts removed from PATM threads.

Thread Tools
Old 22nd May 2010, 09:21
Doc
Busy Busy Busy

Clinically Insane

Doc's Avatar

Join Date: Jun 2008
Location: Look behind you
Posts: 4,027
Thanks: 2,457
Thanked 32,403 Times in 3,572 Posts
Doc Is a GodDoc Is a GodDoc Is a GodDoc Is a GodDoc Is a GodDoc Is a GodDoc Is a GodDoc Is a GodDoc Is a GodDoc Is a GodDoc Is a God
Default

Teacher's Pet 2
Sc - 4



Code:
http://******************/file/4881850/teachers-pet-2-scene4.avi
Doc is offline
The Following 5 Users Say Thank You to Doc For This Useful Post:

Old 4th October 2011, 21:37
Epitome Of Modesty

Clinically Insane

brandao's Avatar

Join Date: Apr 2008
Posts: 3,521
Thanks: 1,499
Thanked 87,364 Times in 3,444 Posts
brandao Is a Godbrandao Is a Godbrandao Is a Godbrandao Is a Godbrandao Is a Godbrandao Is a Godbrandao Is a Godbrandao Is a Godbrandao Is a Godbrandao Is a Godbrandao Is a God
Default

2 Freaky 4 U 1



Screens



191 mb
640x480
22:16
mp4

http://depositfiles.com/files/1ghfqq3b7

or

*****************/qt47jxfrer3sa

or

http://**************/file/2312159481
brandao is offline
The Following 2 Users Say Thank You to brandao For This Useful Post:
Old 8th October 2011, 01:45

Addicted

oedipus's Avatar

Join Date: Mar 2008
Posts: 208
Thanks: 21,978
Thanked 525 Times in 133 Posts
oedipus Is Damn Goodoedipus Is Damn Goodoedipus Is Damn Goodoedipus Is Damn Goodoedipus Is Damn Goodoedipus Is Damn Goodoedipus Is Damn Goodoedipus Is Damn Goodoedipus Is Damn Goodoedipus Is Damn Goodoedipus Is Damn Good
Default Dia 18 and lost in mexico sc 4 2003



Description of the codec : wmv
Duration : 9mn 52s
Width : 720 pixels
Height : 480 pixels
Stream size : 173 MiB

http://**************/file/2396157894/dimex.zip
__________________
oedipus is offline
The Following 3 Users Say Thank You to oedipus For This Useful Post:
Old 8th October 2011, 01:56

Addicted

oedipus's Avatar

Join Date: Mar 2008
Posts: 208
Thanks: 21,978
Thanked 525 Times in 133 Posts
oedipus Is Damn Goodoedipus Is Damn Goodoedipus Is Damn Goodoedipus Is Damn Goodoedipus Is Damn Goodoedipus Is Damn Goodoedipus Is Damn Goodoedipus Is Damn Goodoedipus Is Damn Goodoedipus Is Damn Goodoedipus Is Damn Good
Default Dia different worlds sc 1 2002



Codec ID : avi
Duration : 15mn 57s
Width : 640 pixels
Height : 480 pixels
Stream size : 181 MiB

http://**************/file/2396237704/didw.zip
__________________
oedipus is offline
The Following 3 Users Say Thank You to oedipus For This Useful Post:
Old 8th October 2011, 02:04

Addicted

oedipus's Avatar

Join Date: Mar 2008
Posts: 208
Thanks: 21,978
Thanked 525 Times in 133 Posts
oedipus Is Damn Goodoedipus Is Damn Goodoedipus Is Damn Goodoedipus Is Damn Goodoedipus Is Damn Goodoedipus Is Damn Goodoedipus Is Damn Goodoedipus Is Damn Goodoedipus Is Damn Goodoedipus Is Damn Goodoedipus Is Damn Good
Default Dia, Jay Ashley runaways 8 sc 4 2002



Codec ID/Hint : XviD
Duration : 14mn 50s
Width : 640 pixels
Height : 480 pixels
Stream size : 141 MiB

http://**************/file/2396695974/dir8.zip
__________________
oedipus is offline
The Following 5 Users Say Thank You to oedipus For This Useful Post:
Old 22nd November 2011, 18:57
Postaholic

Beyond Redemption

cooler25's Avatar

Join Date: Sep 2008
Posts: 10,760
Thanks: 2,810
Thanked 104,154 Times in 9,632 Posts
cooler25 Is a Godcooler25 Is a Godcooler25 Is a Godcooler25 Is a Godcooler25 Is a Godcooler25 Is a Godcooler25 Is a Godcooler25 Is a Godcooler25 Is a Godcooler25 Is a Godcooler25 Is a God
Default



Dia Diva - Muy Caliente Latinas scene 2
325MB
18:12
wmv - 720x480 - 2500kbps


download:
http://**************/file/397165...as_02_2500.wmv
cooler25 is offline
The Following 3 Users Say Thank You to cooler25 For This Useful Post:
Old 24th November 2011, 20:42

Clinically Insane

signagi's Avatar

Join Date: Jun 2010
Location: საქართველო
Posts: 3,199
Thanks: 26,927
Thanked 14,906 Times in 2,819 Posts
signagi Is a Godsignagi Is a Godsignagi Is a Godsignagi Is a Godsignagi Is a Godsignagi Is a Godsignagi Is a Godsignagi Is a Godsignagi Is a Godsignagi Is a Godsignagi Is a God
Default

Dia (latina) - Try A Teen #13, Scene 2









size: 74mb
type: wmv
resolution: 480x352
duration: 00:22:16



http://**************/file/3998101584/Dia ne2.wmv
signagi is offline
The Following 2 Users Say Thank You to signagi For This Useful Post:
Thread Tools

Posting Rules
You may not post new threads
You may not post replies
You may not post attachments
You may not edit your posts

BB code is On
Smilies are On
[IMG] code is On
HTML code is Off

Forum Jump


All times are GMT +1. The time now is 01:21.




vBulletin Optimisation provided by vB Optimise (Pro) - vBulletin Mods & Addons Copyright © 2018 DragonByte Technologies Ltd.
(c) Free Porn

Online free porn at mobile phone


lacey duvalle 2014lindsey lohan sextapecache:zs62yIe2CpoJ:artnou.ru/showthread.php?s=0ff1ec8c8878fb66ea23273ce0a5f193&t=163446&highlight=Jerk+instructor&page=460 jeanette littledove forumsarah peachez hardcorebbc12882 uploaded.netcache:APEqht8FSO4J:artnou.ru/t90819-nicole-taylor-nikki-taylor.html porstarsνονη δουνια χοτcache:F95_mW50WIUJ:artnou.ru/t367172-p2-carmella-bing.html marina visconti planetsuzyporn caroline pierce payloadlacey duvalle bangbrosdownload porn video machiko onogianna michaels escortjazmine rosemr x superheroinelauren phoenix pornfake samantha armytage porndestiny dreamxxxcache:hNAhC5rb6hYJ:artnou.ru/showthread.php?s=0ff1ec8c8878fb66ea23273ce0a5f193&t=31745&highlight=Trina+Michaels&page=11 cache:lMIHvyTw-TYJ:artnou.ru/showthread.php?s=0ff1ec8c8878fb66ea23273ce0a5f193&t=815541 bobbi starr deepthroatkiara dianejessica lynn time for a sponge bath mp4las chambeadoras #296download video karina heart Popping Out Of Her TopJaclyn 1956 iafdsite:artnou.ru latexmaggi & kiril teenspornkari byron pornrosamund pike nude picsshyla jennings jerk off videos planetsuzymarey carey porntiffany thompson hdtori black planetsuzywww.paula martini nude.comlucie wilde planetsuzymindy main pornkendra lust nem analkayla carrera analashley massaro pornstaci thornarakis1967Aka Rania Belle porno starbathing your friend's dirty mama 339 mb marianalali esposito+pics her pussyfree download madison ivy devoureddivini rae videosdestiny moody videosblackskinnypornstarsoffice sluts scene 1 renee richardsromulo melkor mancinxev bellringer sticky mess rarsherilyn fenn nakedfacialforum.netcocoa dawn pornstar pics nakedMonika benjar boobsqöt sikiş qoylatex glove pornsunny lane depositfilesdianna dahlgren nakedcharman starteagan presleyAmber Rayne and Daisy Lane in Therapy of Religious Dementiajenny ulvari mobileporn.comceca raznatovic pornocasey cane pornginna lynnkatee sackhoff porndownload video julia boin full freecache:RqddjiJeEvsJ:artnou.ru/showthread.php?s=0ff1ec8c8878fb66ea23273ce0a5f193&t=163446&highlight=melody&page=350 sabrina johnson sodomania mobile scene downloadklara smetanovawardrobe malfunction pornsensual jane planetsuzysharon lee dpcubana lust nakedhttp://artnou.ru/t745803-best-painal-painful-anal-scene.htmlphoenix marie planetsuzygillian jacobs naked