Go Back Free Porn & Adult Videos Forum > Pornstars/Adult and Teen Models (PATM) > PATM - Dead Links

Follow Planet Suzy Forum on Twitter
Best Porn Sites FAQ Mark Forums Read
Notices

PATM - Dead Links Posts removed from PATM threads.

Thread Tools
Old 22nd May 2010, 09:21
Doc
Busy Busy Busy

Clinically Insane

Doc's Avatar

Join Date: Jun 2008
Location: Look behind you
Posts: 4,027
Thanks: 2,457
Thanked 32,410 Times in 3,572 Posts
Doc Is a GodDoc Is a GodDoc Is a GodDoc Is a GodDoc Is a GodDoc Is a GodDoc Is a GodDoc Is a GodDoc Is a GodDoc Is a GodDoc Is a God
Default

Teacher's Pet 2
Sc - 4



Code:
http://******************/file/4881850/teachers-pet-2-scene4.avi
Doc is offline
The Following 5 Users Say Thank You to Doc For This Useful Post:

Old 4th October 2011, 21:37
Epitome Of Modesty

Clinically Insane

brandao's Avatar

Join Date: Apr 2008
Posts: 3,521
Thanks: 1,499
Thanked 87,719 Times in 3,444 Posts
brandao Is a Godbrandao Is a Godbrandao Is a Godbrandao Is a Godbrandao Is a Godbrandao Is a Godbrandao Is a Godbrandao Is a Godbrandao Is a Godbrandao Is a Godbrandao Is a God
Default

2 Freaky 4 U 1



Screens



191 mb
640x480
22:16
mp4

http://depositfiles.com/files/1ghfqq3b7

or

*****************/qt47jxfrer3sa

or

http://**************/file/2312159481
brandao is offline
The Following 2 Users Say Thank You to brandao For This Useful Post:
Old 8th October 2011, 01:45

Addicted

oedipus's Avatar

Join Date: Mar 2008
Posts: 208
Thanks: 23,500
Thanked 525 Times in 133 Posts
oedipus Is Damn Goodoedipus Is Damn Goodoedipus Is Damn Goodoedipus Is Damn Goodoedipus Is Damn Goodoedipus Is Damn Goodoedipus Is Damn Goodoedipus Is Damn Goodoedipus Is Damn Goodoedipus Is Damn Goodoedipus Is Damn Good
Default Dia 18 and lost in mexico sc 4 2003



Description of the codec : wmv
Duration : 9mn 52s
Width : 720 pixels
Height : 480 pixels
Stream size : 173 MiB

http://**************/file/2396157894/dimex.zip
__________________
oedipus is offline
The Following 3 Users Say Thank You to oedipus For This Useful Post:
Old 8th October 2011, 01:56

Addicted

oedipus's Avatar

Join Date: Mar 2008
Posts: 208
Thanks: 23,500
Thanked 525 Times in 133 Posts
oedipus Is Damn Goodoedipus Is Damn Goodoedipus Is Damn Goodoedipus Is Damn Goodoedipus Is Damn Goodoedipus Is Damn Goodoedipus Is Damn Goodoedipus Is Damn Goodoedipus Is Damn Goodoedipus Is Damn Goodoedipus Is Damn Good
Default Dia different worlds sc 1 2002



Codec ID : avi
Duration : 15mn 57s
Width : 640 pixels
Height : 480 pixels
Stream size : 181 MiB

http://**************/file/2396237704/didw.zip
__________________
oedipus is offline
The Following 3 Users Say Thank You to oedipus For This Useful Post:
Old 8th October 2011, 02:04

Addicted

oedipus's Avatar

Join Date: Mar 2008
Posts: 208
Thanks: 23,500
Thanked 525 Times in 133 Posts
oedipus Is Damn Goodoedipus Is Damn Goodoedipus Is Damn Goodoedipus Is Damn Goodoedipus Is Damn Goodoedipus Is Damn Goodoedipus Is Damn Goodoedipus Is Damn Goodoedipus Is Damn Goodoedipus Is Damn Goodoedipus Is Damn Good
Default Dia, Jay Ashley runaways 8 sc 4 2002



Codec ID/Hint : XviD
Duration : 14mn 50s
Width : 640 pixels
Height : 480 pixels
Stream size : 141 MiB

http://**************/file/2396695974/dir8.zip
__________________
oedipus is offline
The Following 5 Users Say Thank You to oedipus For This Useful Post:
Old 22nd November 2011, 18:57
Postaholic

Beyond Redemption

cooler25's Avatar

Join Date: Sep 2008
Posts: 10,760
Thanks: 2,810
Thanked 104,436 Times in 9,632 Posts
cooler25 Is a Godcooler25 Is a Godcooler25 Is a Godcooler25 Is a Godcooler25 Is a Godcooler25 Is a Godcooler25 Is a Godcooler25 Is a Godcooler25 Is a Godcooler25 Is a Godcooler25 Is a God
Default



Dia Diva - Muy Caliente Latinas scene 2
325MB
18:12
wmv - 720x480 - 2500kbps


download:
http://**************/file/397165...as_02_2500.wmv
cooler25 is offline
The Following 3 Users Say Thank You to cooler25 For This Useful Post:
Old 24th November 2011, 20:42

Clinically Insane

signagi's Avatar

Join Date: Jun 2010
Location: საქართველო
Posts: 3,199
Thanks: 26,927
Thanked 14,912 Times in 2,819 Posts
signagi Is a Godsignagi Is a Godsignagi Is a Godsignagi Is a Godsignagi Is a Godsignagi Is a Godsignagi Is a Godsignagi Is a Godsignagi Is a Godsignagi Is a Godsignagi Is a God
Default

Dia (latina) - Try A Teen #13, Scene 2









size: 74mb
type: wmv
resolution: 480x352
duration: 00:22:16



http://**************/file/3998101584/Dia ne2.wmv
signagi is offline
The Following 2 Users Say Thank You to signagi For This Useful Post:
Thread Tools

Posting Rules
You may not post new threads
You may not post replies
You may not post attachments
You may not edit your posts

BB code is On
Smilies are On
[IMG] code is On
HTML code is Off

Forum Jump


All times are GMT +1. The time now is 10:44.




vBulletin Optimisation provided by vB Optimise (Pro) - vBulletin Mods & Addons Copyright © 2018 DragonByte Technologies Ltd.
(c) Free Porn

Online free porn at mobile phone


μινα ορφανου pornartnou.ru mary millington page 2abela andersonjenni lee planetsuzyjennete mccurdy pornCecily Fay sex downloadsa pagitan ng langit sex scenesmiss arroyoindiana jaymescache:XwKgvViEIeoJ:https://artnou.ru/t5520-p8-gillian-anderson.html the real housewives inari vachs and teagan presley porn movieBreanne Benson / Breanne - Page 28 - Free Porn & Adult Videos Forumlucy lawless nude picsharley raineslittle mutt mobile pornophoenix marie planetsuzyammy smetanina pornphun celebphunorgmaria sharapova pornhttp://artnou.ru/showthread.php?t=18752&page=12kristal summers hdf3mbombella nova porn video box of shamekatie kox freeonespaige turnah picstara babcock pornjosette mostalexis knapp sexysimbro 1.1b android скачатьbrandi love porn mobiletrina michaelsmendinyrachel starr planetsuzycache:vHARnmhQe-QJ:artnou.ru/showthread.php?p=12912171&highlight=riley+nixon chastity lynnehuntress hentaijanine lindemulder nudecell s3x tap3sMirella Csikis nudestacey masseyjessica dawn pornlindsay sloane nudefree catfight forumarabelle raphaelfotos porno de brandi passanteartnou.ru laela pryce patm standard video page 12leanne croweariel rose analselena steelejulia ann planetsuzycarol saraiva desnudamilena d sunnaartnou.ru sofi goldfinger patm standard videoschristy canyon videosemy reyes pornryan conner vs buddy hollywood mobile porn videosnatalie p0rnstar nude videos downloadartnou.ru casey calvert patmgainni pornobonnie wright pornbig boob videos » breastfest in bed jaylene rio free videosgianna michaels escorthttps://artnou.ru/showthread.php?goto=newpost&t=147100侵触 スミスミ vidPorno GWXYtaimie hannumpenny pax natasha nice video downloadkristina rose pov03.-DD-BAV.rar